* Dettagli Torrent   globale  | Commenti (2) 


- The Greatest Showman (2017).H264.italian.English.Ac3-5.1.sub.ita.eng.MIRCrew -


Download via torrent:
Categoria bittorrent BDRip
Descrizione
The Greatest Showman (2017).H264.italian.English.Ac3-5.1.sub.ita.eng.MIRCrew



NO FOUND ONLY ORIGINAL RELEASE



My release is always in double track audio italian and Original audio
for select it use VLC or dvd player home
not use wmp

The Greatest Showman

(2017)







GENERE: Biografico, Musicale, Drammatico
ANNO: 2017
REGIA: Michael Gracey
PAESE: USA
DURATA: 105 Min



Hugh Jackman, Rebecca Ferguson, Zendaya, Zac Efron, Michelle Williams, Yahya Abdul-Mateen II, Paul Sparks, Diahann Carroll, Fredric Lehne, Tina Benko, Doris McCarthy



Numeri poderosi e coreografie sgargianti si mescolano nello spettacolo ottocentesco che prende il nome di The Greatest Showman, il biopic musicale con Hugh Jackman nei panni dell'abile intrattenitore di folle P.T. Barnum. L'astuto impresario circense, entrato in affari col giovane Phillip (Zac Efron), ha per le mani il rivoluzionario progetto di un enorme circo a tre piste................



Celebrates the birth of show business, and tells of a visionary who rose from nothing to create a spectacle that became a worldwide sensation.













[spoiler]
General
Unique ID                                : 335528933134651050032732056907769602247 (0xFC6C859EBA20850C1C91D27089BA60C7)
Complete name                            : The Greatest Showman (2017).H264.ita.eng.sub.ita.eng - MIRCrew\The Greatest Showman (2017).H264.ita.eng.sub.ita.eng - MIRCrew.mkv
Format                                   : Matroska
Format version                           : Version 2
File size                                : 1.61 GiB
Duration                                 : 1h 44mn
Overall bit rate                         : 2 205 Kbps
Movie name                               : MIRCrew
Encoded date                             : UTC 2018-04-25 17:06:49
Writing application                      : Lavf54.63.100
Writing library                          : Lavf54.63.100
COPYRIGHT                                : by robbyrs - Il Corsaronero

Video
ID                                       : 1
Format                                   : AVC
Format/Info                              : Advanced Video Codec
Format profile                           : [email protected]
Format settings, CABAC                   : Yes
Format settings, ReFrames                : 2 frames
Codec ID                                 : V_MPEG4/ISO/AVC
Duration                                 : 1h 44mn
Bit rate                                 : 1 300 Kbps
Width                                    : 720 pixels
Height                                   : 304 pixels
Display aspect ratio                     : 2.40:1
Original display aspect ratio            : 2.40:1
Frame rate mode                          : Variable
Frame rate                               : 23.976 fps
Color space                              : YUV
Chroma subsampling                       : 4:2:0
Bit depth                                : 8 bits
Scan type                                : Progressive
Bits/(Pixel*Frame)                       : 0.248
Stream size                              : 949 MiB (57%)
Writing library                          : x264 core 130 r2273
Encoding settings                        : cabac=1 / ref=2 / deblock=1:0:0 / analyse=0x1:0x131 / me=hex / subme=7 / psy=1 / psy_rd=1.00:0.00 / mixed_ref=0 / me_range=16 / chroma_me=1 / trellis=1 / 8x8dct=0 / cqm=0 / deadzone=21,11 / fast_pskip=1 / chroma_qp_offset=-2 / threads=3 / lookahead_threads=1 / sliced_threads=0 / nr=0 / decimate=1 / interlaced=0 / bluray_compat=0 / constrained_intra=0 / bframes=3 / b_pyramid=0 / b_adapt=1 / b_bias=0 / direct=3 / weightb=1 / open_gop=0 / weightp=2 / keyint=230 / keyint_min=23 / scenecut=40 / intra_refresh=0 / rc_lookahead=40 / rc=abr / mbtree=1 / bitrate=1300 / ratetol=1.0 / qcomp=0.60 / qpmin=10 / qpmax=69 / qpstep=4 / vbv_maxrate=24000 / vbv_bufsize=24000 / nal_hrd=none / ip_ratio=1.40 / aq=1:1.00
Language                                 : Italian
Default                                  : Yes
Forced                                   : No
DURATION                                 : 01:44:49.242000000
NUMBER_OF_FRAMES                         : 150791
NUMBER_OF_BYTES                          : 7843352238
_STATISTICS_WRITING_APP                  : mkvmerge v9.5.0 ('Quiet Fire') 64bit
_STATISTICS_WRITING_DATE_UTC             : 2018-04-09 13:22:16
_STATISTICS_TAGS                         : BPS DURATION NUMBER_OF_FRAMES NUMBER_OF_BYTES

Audio #1
ID                                       : 2
Format                                   : AC-3
Format/Info                              : Audio Coding 3
Mode extension                           : CM (complete main)
Codec ID                                 : A_AC3
Duration                                 : 1h 44mn
Bit rate mode                            : Constant
Bit rate                                 : 448 Kbps
Channel(s)                               : 6 channels
Channel positions                        : Front: L C R, Side: L R, LFE
Sampling rate                            : 48.0 KHz
Bit depth                                : 16 bits
Compression mode                         : Lossy
Delay relative to video                  : 1mn 5s
Stream size                              : 336 MiB (20%)
Title                                    : AC3 ITA
Language                                 : Italian
Default                                  : No
Forced                                   : No
DURATION                                 : 01:44:49.312000000
NUMBER_OF_FRAMES                         : 196541
NUMBER_OF_BYTES                          : 503144960
_STATISTICS_WRITING_APP                  : mkvmerge v9.5.0 ('Quiet Fire') 64bit
_STATISTICS_WRITING_DATE_UTC             : 2018-04-09 13:22:16
_STATISTICS_TAGS                         : BPS DURATION NUMBER_OF_FRAMES NUMBER_OF_BYTES

Audio #2
ID                                       : 3
Format                                   : AC-3
Format/Info                              : Audio Coding 3
Mode extension                           : CM (complete main)
Codec ID                                 : A_AC3
Duration                                 : 1h 44mn
Bit rate mode                            : Constant
Bit rate                                 : 448 Kbps
Channel(s)                               : 6 channels
Channel positions                        : Front: L C R, Side: L R, LFE
Sampling rate                            : 48.0 KHz
Bit depth                                : 16 bits
Compression mode                         : Lossy
Delay relative to video                  : 1mn 5s
Stream size                              : 336 MiB (20%)
Title                                    : AC3 ENG
Language                                 : English
Default                                  : No
Forced                                   : No
DURATION                                 : 01:44:49.312000000
NUMBER_OF_FRAMES                         : 196541
NUMBER_OF_BYTES                          : 503144960
_STATISTICS_WRITING_APP                  : mkvmerge v9.5.0 ('Quiet Fire') 64bit
_STATISTICS_WRITING_DATE_UTC             : 2018-04-09 13:22:16
_STATISTICS_TAGS                         : BPS DURATION NUMBER_OF_FRAMES NUMBER_OF_BYTES

Menu
00:00:00.000                             : :00:00:00.000
00:03:21.618                             : :00:03:21.618
00:11:33.985                             : :00:11:33.985
00:16:21.314                             : :00:16:21.314
00:21:13.731                             : :00:21:13.731
00:25:04.169                             : :00:25:04.169
00:32:10.178                             : :00:32:10.178
00:36:09.626                             : :00:36:09.626
00:41:38.413                             : :00:41:38.413
00:44:41.053                             : :00:44:41.053
00:48:24.151                             : :00:48:24.151
00:53:11.146                             : :00:53:11.146
00:56:20.711                             : :00:56:20.711
01:01:34.816                             : :01:01:34.816
01:07:33.883                             : :01:07:33.883
01:12:00.983                             : :01:12:00.983
01:18:23.699                             : :01:18:23.699
01:22:07.131                             : :01:22:07.131
01:29:04.798                             : :01:29:04.798
01:37:09.449                             : :01:37:09.449


[/spoiler]



Info: Per scaricare devi usare un client come uTorrent o Transmission
AnnounceURL
udp://tracker.coppersurfer.tk:6969/announce
Hash 8141727db1b9a8d304d0e22087009d73bc7a51a9
Peers seeds: 97 , leech: 25
Size 1.61 GB
Completato 1943x
Aggiunto 26.04.18 - 17:04:24
Uploader   robbyrs
Votazione (Voti: 1)


Condividi questo bittorrent:


html/blog:


bbcode/forum:




Aggiungi Commento
Ultimi commenti
avatar   robbyrs   
grazie a voi vediamo sempre di mettere tutti i formati di varie dimensioni, accontentiamo un pò tutti
26/04 21.57
 gecogeco   
Grazie
26/04 21.36
Tutti commenti (2)


counter