* Dettagli Torrent   globale  | Commenti (1) 


- Oceania - Moana (2016 Ita/Eng) EXTRA [1080p] [iCV-MIRCrew] -


Download via torrent:
Categoria bittorrent BDRip
Descrizione
[center]








Oceania (2016)




Titolo originale: Moana
Nazionalità: USA
Anno: 2016
Genere: animazione, avventura, musicale, commedia
Regia: Ron Clements, John Musker
Durata: 107 min




Tremila anni fa, i più grandi navigatori al mondo attraversavano lo sconfinato Oceano Pacifico, alla scoperta delle numerose isole dell'Oceania. Ma poi, per un millennio, i loro viaggi cessarono - e ancora oggi, nessuno sa il perché. Da Walt Disney Animation Studios arriva Oceania, un'entusiasmante avventura d'animazione incentrata su una vivace adolescente di nome Vaiana, che s'imbarca in una coraggiosa missione per salvare il suo popolo. Durante il suo viaggio, s'imbatterà nel semidio in disgrazia Maui che la guiderà nella sua ricerca per diventare una grande esploratrice. Insieme, i due attraverseranno l'oceano in un viaggio pieno d'azione, che li porterà ad affrontare enormi creature feroci e ostacoli impossibili e, lungo il percorso, Vaiana porterà a compimento l'antica ricerca dei suoi antenati e troverà l'unica cosa che ha sempre desiderato: la propria identità.











General
Unique ID                   : 243993399744865229865173021127034762615 (0xB78F6B630D0D5E0396D886D81E8F7577)
Complete name               : E:\DISNEY\Oceania (2016) - 1080p EXTRA iCV-MIRCrew\Oceania (2016) - 1080p iCV-MIRCrew.mkv
Format                      : Matroska
Format version              : Version 4 / Version 2
File size                   : 6.66 GiB
Duration                    : 1 h 47 min
Overall bit rate            : 8 898 kb/s
Encoded date                : UTC 2017-04-15 13:08:49
Writing application         : mkvmerge v9.8.0 ('Kuglblids') 64bit
Writing library             : libebml v1.3.4 + libmatroska v1.4.5
Cover                       : Yes
Attachments                 : cover.png / small_cover.png

Video
ID                          : 1
Format                      : AVC
Format/Info                 : Advanced Video Codec
Format profile              : [email protected]
Format settings, CABAC      : Yes
Format settings, ReFrames   : 5 frames
Codec ID                    : V_MPEG4/ISO/AVC
Duration                    : 1 h 47 min
Bit rate                    : 7 213 kb/s
Width                       : 1 920 pixels
Height                      : 804 pixels
Display aspect ratio        : 2.40:1
Frame rate mode             : Constant
Frame rate                  : 23.976 (24000/1001) FPS
Color space                 : YUV
Chroma subsampling          : 4:2:0
Bit depth                   : 8 bits
Scan type                   : Progressive
Bits/(Pixel*Frame)          : 0.195
Stream size                 : 5.40 GiB (81%)
Writing library             : x264 core 148 r2708 86b7198
Encoding settings           : cabac=1 / ref=5 / deblock=1:0:0 / analyse=0x3:0x113 / me=umh / subme=8 / psy=1 / psy_rd=1.00:0.00 / mixed_ref=1 / me_range=16 / chroma_me=1 / trellis=1 / 8x8dct=1 / cqm=0 / deadzone=21,11 / fast_pskip=1 / chroma_qp_offset=-2 / threads=12 / lookahead_threads=2 / sliced_threads=0 / nr=0 / decimate=1 / interlaced=0 / bluray_compat=0 / constrained_intra=0 / bframes=3 / b_pyramid=2 / b_adapt=2 / b_bias=0 / direct=3 / weightb=1 / open_gop=0 / weightp=2 / keyint=240 / keyint_min=24 / scenecut=40 / intra_refresh=0 / rc_lookahead=50 / rc=crf / mbtree=1 / crf=19.0 / qcomp=0.60 / qpmin=0 / qpmax=69 / qpstep=4 / vbv_maxrate=62500 / vbv_bufsize=78125 / crf_max=0.0 / nal_hrd=none / filler=0 / ip_ratio=1.40 / aq=1:1.00
Default                     : Yes
Forced                      : No
Color range                 : Limited
Color primaries             : BT.709
Transfer characteristics    : BT.709
Matrix coefficients         : BT.709

Audio #1
ID                          : 2
Format                      : AC-3
Format/Info                 : Audio Coding 3
Mode extension              : CM (complete main)
Format settings, Endianness : Big
Codec ID                    : A_AC3
Duration                    : 1 h 47 min
Bit rate mode               : Constant
Bit rate                    : 640 kb/s
Channel(s)                  : 6 channels
Channel positions           : Front: L C R, Side: L R, LFE
Sampling rate               : 48.0 kHz
Frame rate                  : 31.250 FPS (1536 spf)
Bit depth                   : 16 bits
Compression mode            : Lossy
Stream size                 : 491 MiB (7%)
Language                    : Italian
Default                     : Yes
Forced                      : No

Audio #2
ID                          : 3
Format                      : AC-3
Format/Info                 : Audio Coding 3
Mode extension              : CM (complete main)
Format settings, Endianness : Big
Codec ID                    : A_AC3
Duration                    : 1 h 47 min
Bit rate mode               : Constant
Bit rate                    : 640 kb/s
Channel(s)                  : 6 channels
Channel positions           : Front: L C R, Side: L R, LFE
Sampling rate               : 48.0 kHz
Frame rate                  : 31.250 FPS (1536 spf)
Bit depth                   : 16 bits
Compression mode            : Lossy
Stream size                 : 491 MiB (7%)
Language                    : English
Default                     : No
Forced                      : No

Audio #3
ID                          : 4
Format                      : AC-3
Format/Info                 : Audio Coding 3
Mode extension              : CM (complete main)
Format settings, Endianness : Big
Codec ID                    : A_AC3
Duration                    : 1 h 47 min
Bit rate mode               : Constant
Bit rate                    : 192 kb/s
Channel(s)                  : 2 channels
Channel positions           : Front: L R
Sampling rate               : 48.0 kHz
Frame rate                  : 31.250 FPS (1536 spf)
Bit depth                   : 16 bits
Compression mode            : Lossy
Stream size                 : 147 MiB (2%)
Title                       : COMMENTARY
Language                    : English
Default                     : No
Forced                      : No

Text #1
ID                          : 5
Format                      : PGS
Muxing mode                 : zlib
Codec ID                    : S_HDMV/PGS
Codec ID/Info               : Picture based subtitle format used on BDs/HD-DVDs
Duration                    : 3 s 921 ms
Bit rate                    : 6 353 b/s
Count of elements           : 2
Stream size                 : 3.04 KiB (0%)
Title                       : FORCED
Language                    : Italian
Default                     : Yes
Forced                      : Yes

Text #2
ID                          : 6
Format                      : PGS
Muxing mode                 : zlib
Codec ID                    : S_HDMV/PGS
Codec ID/Info               : Picture based subtitle format used on BDs/HD-DVDs
Duration                    : 1 h 45 min
Bit rate                    : 8 322 b/s
Count of elements           : 2462
Stream size                 : 6.28 MiB (0%)
Language                    : Italian
Default                     : No
Forced                      : No

Text #3
ID                          : 7
Format                      : PGS
Muxing mode                 : zlib
Codec ID                    : S_HDMV/PGS
Codec ID/Info               : Picture based subtitle format used on BDs/HD-DVDs
Duration                    : 1 h 45 min
Bit rate                    : 7 714 b/s
Count of elements           : 1826
Stream size                 : 5.82 MiB (0%)
Language                    : Danish
Default                     : No
Forced                      : No

Text #4
ID                          : 8
Format                      : PGS
Muxing mode                 : zlib
Codec ID                    : S_HDMV/PGS
Codec ID/Info               : Picture based subtitle format used on BDs/HD-DVDs
Duration                    : 1 h 45 min
Bit rate                    : 7 703 b/s
Count of elements           : 2430
Stream size                 : 5.82 MiB (0%)
Language                    : Finnish
Default                     : No
Forced                      : No

Text #5
ID                          : 9
Format                      : PGS
Muxing mode                 : zlib
Codec ID                    : S_HDMV/PGS
Codec ID/Info               : Picture based subtitle format used on BDs/HD-DVDs
Duration                    : 1 h 45 min
Bit rate                    : 8 287 b/s
Count of elements           : 2460
Stream size                 : 6.26 MiB (0%)
Language                    : Norwegian
Default                     : No
Forced                      : No

Text #6
ID                          : 10
Format                      : PGS
Muxing mode                 : zlib
Codec ID                    : S_HDMV/PGS
Codec ID/Info               : Picture based subtitle format used on BDs/HD-DVDs
Duration                    : 1 h 45 min
Bit rate                    : 7 017 b/s
Count of elements           : 1942
Stream size                 : 5.30 MiB (0%)
Language                    : Swedish
Default                     : No
Forced                      : No

Text #7
ID                          : 11
Format                      : PGS
Muxing mode                 : zlib
Codec ID                    : S_HDMV/PGS
Codec ID/Info               : Picture based subtitle format used on BDs/HD-DVDs
Duration                    : 1 h 45 min
Bit rate                    : 9 677 b/s
Count of elements           : 2694
Stream size                 : 7.31 MiB (0%)
Title                       : HEARING IMPAIRED
Language                    : English
Default                     : No
Forced                      : No

Text #8
ID                          : 12
Format                      : PGS
Muxing mode                 : zlib
Codec ID                    : S_HDMV/PGS
Codec ID/Info               : Picture based subtitle format used on BDs/HD-DVDs
Duration                    : 1 h 46 min
Bit rate                    : 26.7 kb/s
Count of elements           : 4868
Stream size                 : 20.4 MiB (0%)
Title                       : COMMENTARY
Language                    : Italian
Default                     : No
Forced                      : No

Text #9
ID                          : 13
Format                      : PGS
Muxing mode                 : zlib
Codec ID                    : S_HDMV/PGS
Codec ID/Info               : Picture based subtitle format used on BDs/HD-DVDs
Duration                    : 1 h 46 min
Bit rate                    : 31.0 kb/s
Count of elements           : 5012
Stream size                 : 23.7 MiB (0%)
Title                       : COMMENTARY
Language                    : English
Default                     : No
Forced                      : No

Text #10
ID                          : 14
Format                      : PGS
Muxing mode                 : zlib
Codec ID                    : S_HDMV/PGS
Codec ID/Info               : Picture based subtitle format used on BDs/HD-DVDs
Duration                    : 1 h 46 min
Bit rate                    : 26.3 kb/s
Count of elements           : 4858
Stream size                 : 20.0 MiB (0%)
Title                       : COMMENTARY
Language                    : Danish
Default                     : No
Forced                      : No

Text #11
ID                          : 15
Format                      : PGS
Muxing mode                 : zlib
Codec ID                    : S_HDMV/PGS
Codec ID/Info               : Picture based subtitle format used on BDs/HD-DVDs
Duration                    : 1 h 46 min
Bit rate                    : 23.3 kb/s
Count of elements           : 4868
Stream size                 : 17.8 MiB (0%)
Title                       : COMMENTARY
Language                    : Finnish
Default                     : No
Forced                      : No

Text #12
ID                          : 16
Format                      : PGS
Muxing mode                 : zlib
Codec ID                    : S_HDMV/PGS
Codec ID/Info               : Picture based subtitle format used on BDs/HD-DVDs
Duration                    : 1 h 46 min
Bit rate                    : 25.7 kb/s
Count of elements           : 4866
Stream size                 : 19.6 MiB (0%)
Title                       : COMMENTARY
Language                    : Norwegian
Default                     : No
Forced                      : No

Text #13
ID                          : 17
Format                      : PGS
Muxing mode                 : zlib
Codec ID                    : S_HDMV/PGS
Codec ID/Info               : Picture based subtitle format used on BDs/HD-DVDs
Duration                    : 1 h 46 min
Bit rate                    : 26.6 kb/s
Count of elements           : 4868
Stream size                 : 20.3 MiB (0%)
Title                       : COMMENTARY
Language                    : Swedish
Default                     : No
Forced                      : No

Menu
00:00:00.000                : en:Chapter 1
00:07:15.685                : en:Chapter 2
00:11:59.802                : en:Chapter 3
00:16:13.764                : en:Chapter 4
00:21:29.579                : en:Chapter 5
00:28:02.806                : en:Chapter 6
00:32:11.346                : en:Chapter 7
00:35:16.280                : en:Chapter 8
00:41:36.869                : en:Chapter 9
00:45:04.868                : en:Chapter 10
00:49:10.322                : en:Chapter 11
00:53:21.031                : en:Chapter 12
00:57:33.324                : en:Chapter 13
01:05:45.024                : en:Chapter 14
01:10:46.075                : en:Chapter 15
01:12:52.117                : en:Chapter 16
01:15:41.954                : en:Chapter 17
01:23:17.075                : en:Chapter 18
01:29:50.927                : en:Chapter 19
01:36:13.726                : en:Chapter 20




In questa versione sono compresi gli extra:

1 - Corto - Testa o cuore
2 - Mini film di Maui - A pesca
3 - Voce delle isole
4 - Cose che non sapevi...
5 - Moda isolana
6 - Gli elementi di...
7 - They know the way -  Creare la musica di Oceania
8 - Canzone cancellata - Warrior face - con un introduzione dell autore Lin-Manuel Miranda
9 - A caccia di Easter Eggs
10 - Scene Eliminate con un introduzione dei registi John Musker e Ron Clements
11 - Oltre l orizzonte - Interpretata da Alessia Cara
12 - Oltre l orizzonte - In tutto il mondo

[/center]
Info: Per scaricare devi usare un client come uTorrent o Transmission
AnnounceURL
udp://tracker.coppersurfer.tk:6969/announce
Hash 142c327bb8e0a5f0932f20f4fd6e3d873ed776fb
Peers seeds: 181 , leech: 183
Size 12.66 GB
Completato 1362x
Aggiunto 17.04.17 - 10:04:10
Uploader   nicola939
Votazione (Voti: 2)


Condividi questo bittorrent:


html/blog:


bbcode/forum:




Aggiungi Commento
Ultimi commenti
 ICVFilmICVFilm   
Grazie mille, si vede molto bene. Potresti caricare Sausage Party con gli EXTRA?

Grazie.
22/04 09.45
Tutti commenti (1)


counter Sitemap