* Dettagli Torrent   globale  | Commenti (0) 


- Ocean Waves - Si sente il mare (1993).BRrip.XviD - Italian.jpn.Ac3.5.Sub.NUita.eng.iCV-MIRCrew -


Download via torrent:
Categoria bittorrent BDRip
Descrizione
Ocean Waves - Si sente il mare -  Umi ga kikoeru (1993).BRrip.XviD - Italian.jpn.Ac3.5.1.Sub.NUita.eng.iCV-MIRCrew

[center]


NO FOUND ONLY ORIGINAL RELEASE

My release is always in double track audio italian and Original audio
for select it use VLC or dvd player home
not use wmp

SUBTITLE ENGLISH INSIDE

SOTTOTOTITOLI ITALIANI PER NON UDENTI  INCLUSI

Si sente il mare -  Umi ga kikoeru (1993)








Lingua orig. giapponese
Paese Giappone
Autore Saeko Himuro
Regia Tomomi Mochizuki
Char. design Katsuya Kondo
Dir. artistica Naoya Tanaka
Musiche Shigeru Nagata
Studio Studio Ghibli
Rete TV Asahi
1ª TV 5 maggio 1993
Episodi unico
Durata ep. 72 min



Kawamura Kan Tokumaru

Kohama Yumi Kae Araki

Matsuno Yutaka Toshihiko Seki

Morisaki Taku Nobuo Tobita

Mutou Rikako Sakamoto Yoko

Okada Jun`ichi Kanemaru

Shimizu Akiko Yuri Amano

Yamao Tadashi Hikaru Midorikawa

 


La storia si svolge a K?chi, nell'isola di Shikoku, e riguarda le storie sentimentali intrecciate di tre giovani (due ragazzi e una ragazza) che danno vita ad una specie di triangolo di sentimenti, i due sono grandi amici e la ragazza si è appena trasferita da Tokyo. Questa ragazza inizialmente non viene apprezzata soprattutto dalle sue compagne di classe e non viene integrata tra loro...............................



As a young man returns home after his first year away at college he recalls his senior year of high school and the iron-willed, big city girl that turned his world upside down. ............












[spoiler]
General
Complete name                            : Si sente il mare -  Umi ga kikoeru (1993).ita.jpn.sub.NUita.eng,iCV-MIRCrew.avi
Format                                   : AVI
Format/Info                              : Audio Video Interleave
File size                                : 996 MiB
Duration                                 : 1h 12mn
Overall bit rate                         : 1 933 Kbps
Movie name                               : www.icv-crew.org
Writing application                      : VirtualDubMod 1.5.10.2 (build 2540/release)
Writing library                          : VirtualDubMod build 2540/release

Video
ID                                       : 0
Format                                   : MPEG-4 Visual
Format profile                           : [email protected]
Format settings, BVOP                    : No
Format settings, QPel                    : No
Format settings, GMC                     : No warppoints
Format settings, Matrix                  : Default (H.263)
Codec ID                                 : XVID
Codec ID/Hint                            : XviD
Duration                                 : 1h 12mn
Bit rate                                 : 1 407 Kbps
Width                                    : 716 pixels
Height                                   : 388 pixels
Display aspect ratio                     : 1.853
Frame rate                               : 24.000 fps
Color space                              : YUV
Chroma subsampling                       : 4:2:0
Bit depth                                : 8 bits
Scan type                                : Progressive
Compression mode                         : Lossy
Bits/(Pixel*Frame)                       : 0.211
Stream size                              : 725 MiB (73%)
Writing library                          : XviD 64

Audio #1
ID                                       : 1
Format                                   : AC-3
Format/Info                              : Audio Coding 3
Mode extension                           : CM (complete main)
Codec ID                                 : 2000
Duration                                 : 1h 12mn
Bit rate mode                            : Constant
Bit rate                                 : 256 Kbps
Channel(s)                               : 2 channels
Channel positions                        : Front: L R
Sampling rate                            : 48.0 KHz
Bit depth                                : 16 bits
Compression mode                         : Lossy
Delay relative to video                  : 1s 0ms
Stream size                              : 132 MiB (13%)
Alignment                                : Split accross interleaves
Interleave, duration                     : 42 ms (1.00 video frame)
Interleave, preload duration             : 500 ms

Audio #2
ID                                       : 2
Format                                   : AC-3
Format/Info                              : Audio Coding 3
Mode extension                           : CM (complete main)
Codec ID                                 : 2000
Duration                                 : 1h 12mn
Bit rate mode                            : Constant
Bit rate                                 : 256 Kbps
Channel(s)                               : 2 channels
Channel positions                        : Front: L R
Sampling rate                            : 48.0 KHz
Bit depth                                : 16 bits
Compression mode                         : Lossy
Delay relative to video                  : 1s 0ms
Stream size                              : 132 MiB (13%)
Alignment                                : Split accross interleaves
Interleave, duration                     : 42 ms (1.00 video frame)
Interleave, preload duration             : 500 ms


[/spoiler]

[/center]

Info: Per scaricare devi usare un client come uTorrent o Transmission
AnnounceURL
udp://tracker.leechers-paradise.org:6969/announce
Hash b712572b0e86736c49158166500a9c261eb1b719
Peers seeds: 9 , leech: 2
Size 1.00 GB
Completato 314x
Aggiunto 14.04.16 - 15:04:53
Uploader   robbyrs
Votazione (Voti: 0)


Condividi questo bittorrent:


html/blog:


bbcode/forum:




Aggiungi Commento


counter Sitemap